<?xml version="1.0" standalone="no"?>
<!DOCTYPE svg PUBLIC "-//W3C//DTD SVG 1.1//EN" "http://www.w3.org/Graphics/SVG/1.1/DTD/svg11.dtd" >
<!--
2018-4-25: Created with FontForge (http://fontforge.org)
-->
<svg xmlns="http://www.w3.org/2000/svg" xmlns:xlink="http://www.w3.org/1999/xlink" version="1.1">
<metadata>
Created by FontForge 20160405 at Wed Apr 25 11:21:50 2018
 By Apache
Copyright (c) 2018, Apache
</metadata>
<defs>
<font id="Flaticon" horiz-adv-x="512" >
  <font-face 
    font-family="Flaticon"
    font-weight="400"
    font-stretch="normal"
    units-per-em="512"
    panose-1="2 0 5 3 0 0 0 0 0 0"
    ascent="448"
    descent="-64"
    bbox="-0.000630019 -64.0088 512.002 448"
    underline-thickness="25.6"
    underline-position="-51.2"
    unicode-range="U+0020-F125"
  />
    <missing-glyph />
    <glyph glyph-name="space" unicode=" " horiz-adv-x="200" 
 />
    <glyph glyph-name="uniF124" unicode="&#xf124;" 
d="M256.05 448c107.068 -0.165039 193.793 -86.9785 193.85 -194.048c0 -104.21 -178.875 -306.044 -186.462 -314.628c-0.245117 -0.274414 -0.504883 -0.53418 -0.77832 -0.779297c-4.10742 -3.67676 -10.4189 -3.32812 -14.0957 0.779297
c-7.58594 8.48438 -186.461 210.418 -186.461 314.628c0.0546875 107.108 86.8398 193.938 193.947 194.048zM256.05 -38.8154c34.1377 39.7275 173.984 207.522 173.984 292.868c0 96.0889 -77.8955 173.983 -173.984 173.983s-173.983 -77.8945 -173.983 -173.983
c0 -85.3457 139.846 -252.941 173.983 -292.868zM259.544 350.677c58.043 -0.0546875 105.099 -47.0654 105.209 -105.109c0 -58.0107 -46.999 -105.054 -105.01 -105.108c-58.0498 -0.0556641 -105.154 46.959 -105.209 105.009s46.96 105.154 105.01 105.209z
M259.544 160.322c47.001 0.0546875 85.0898 38.1436 85.1445 85.1455c0 47.0244 -38.1201 85.1455 -85.1445 85.1455c-47.0254 0 -85.1455 -38.1211 -85.1455 -85.1455s38.1201 -85.1455 85.1455 -85.1455z" />
    <glyph glyph-name="uniF101" unicode="&#xf101;" 
d="M256.794 303.926c113.116 0 221.866 -107.56 226.232 -112.322c3.1748 -3.17578 4.7627 -7.14453 4.7627 -11.5107c0 -4.36523 -1.58789 -8.33496 -4.7627 -11.5098c-4.36621 -4.7627 -113.514 -112.322 -226.232 -112.322c-112.72 0 -221.47 107.56 -226.232 112.322
c-3.17578 3.1748 -4.7627 7.14453 -4.7627 11.5098c0 4.36621 1.58691 8.33496 4.7627 11.5107c4.36523 4.7627 113.513 112.322 226.232 112.322zM256.794 89.2031c78.9824 0 160.347 64.2979 190.908 91.2871c-30.5615 26.9893 -111.926 91.2861 -190.908 91.2861
c-78.9834 0 -160.348 -64.2969 -190.908 -91.2861c30.5605 -26.9893 111.925 -91.2871 190.908 -91.2871zM198.449 180.49c0 32.1484 26.1953 58.7412 58.7412 58.7412s58.7412 -26.1953 58.7412 -58.7412s-26.1953 -58.7412 -58.7412 -58.7412
s-58.7412 26.5918 -58.7412 58.7412zM282.989 180.49c0 14.2881 -11.9072 25.7979 -26.1953 26.1953c-14.6855 0 -26.1953 -11.5107 -26.1953 -26.1953c0 -14.6855 11.9072 -26.1953 26.1953 -26.1953c14.6855 0 26.1953 11.9062 26.1953 26.1953z" />
    <glyph glyph-name="uniF122" unicode="&#xf122;" 
d="M344.718 147.615c75.3184 -34.6689 123.936 -110.393 123.936 -193.139c0 -1.93164 -0.115234 -3.81055 -0.239258 -5.70215l-0.570312 -12.7744h-423.705l-0.550781 12.9199c-0.115234 1.84863 -0.239258 3.68652 -0.239258 5.55664
c0 81.4463 47.4648 156.507 121.07 191.736l0.03125 0.0419922l1.68164 0.799805c6.29492 2.91895 12.7959 5.57715 19.3398 7.89258l2.13867 0.769531c3.08594 1.05957 6.36621 2.1084 9.69043 3.06348c4.17383 1.21582 8.48535 2.32715 12.8262 3.30371
c2.24316 0.488281 4.48828 0.933594 6.76172 1.33984c2.0459 0.384766 4.12402 0.768555 6.20117 1.11133l0.893555 0.125c3.04297 0.487305 6.08594 0.914062 9.14941 1.23633l3.33398 0.299805l1.33008 0.103516l2.85547 0.239258
c9.79297 0.71582 20.0039 0.737305 29.9111 0.0830078l8.05957 -0.664062c2.36914 -0.270508 4.64258 -0.591797 6.92773 -0.93457l0.789062 -0.103516c0.0302734 0 0.0517578 -0.0205078 0.0820312 -0.0205078l0.789062 -0.125
c2.75195 -0.405273 5.47363 -0.87207 8.18359 -1.40234l1.0791 -0.208984c1.5791 -0.28125 3.16797 -0.592773 4.72559 -0.914062c4.58887 -1.01855 9.0459 -2.17188 13.46 -3.44922c2.89746 -0.851562 5.76465 -1.72363 8.61035 -2.6582
c3.60352 -1.21484 7.15527 -2.5127 10.6562 -3.91602c3.20898 -1.25488 6.35742 -2.59668 9.48242 -4.01855zM64.1279 -43.2275v0.0175781h383.729c-0.893555 73.834 -44.6592 141.136 -112.055 172.055l-0.518555 0.239258
c-2.9707 1.36133 -5.97168 2.63965 -9.01465 3.83398c-3.16699 1.25488 -6.36719 2.42969 -9.60742 3.50977c-2.55469 0.851562 -5.17285 1.64062 -7.81055 2.40918c-3.98828 1.1543 -8.00684 2.21289 -12.0986 3.10645
c-1.31934 0.279297 -2.70996 0.548828 -4.11328 0.80957l-1.16309 0.217773c-2.49219 0.46875 -4.97461 0.893555 -7.45703 1.25781l-2.37891 0.342773c-1.98438 0.279297 -3.61426 0.49707 -5.24512 0.68457l-6.60449 0.551758
c-10.3027 0.748047 -18.8096 0.654297 -27.6992 0l-6.79199 -0.591797c-2.9707 -0.321289 -5.95215 -0.748047 -8.92285 -1.21582l-0.80957 -0.145508c-1.65137 -0.259766 -3.28223 -0.571289 -4.92188 -0.87207c-2.06738 -0.384766 -4.07227 -0.790039 -6.07617 -1.21582
c-3.87402 -0.871094 -7.73828 -1.86816 -11.5293 -2.97949c-3.04297 -0.863281 -5.9707 -1.79688 -8.91113 -2.81543l-1.71289 -0.612305c-5.40039 -1.90039 -10.7285 -4.0498 -15.8906 -6.40723l-0.248047 -0.239258l-2.11914 -0.831055
c-65.8984 -30.8984 -109.136 -97.9814 -110.029 -171.109zM204.662 193.313c-49.1875 20.8037 -80.959 68.7354 -80.9385 122.126c0 2.24316 0.134766 4.43457 0.300781 6.62598l0.115234 1.72461c4.33105 69.6494 62.3789 124.207 132.151 124.207
c73.0967 0 132.566 -59.4609 132.566 -132.558l-0.0625 -1.10059c0 -38.5215 -17.5732 -75.6631 -48.1504 -100.974l-5.31836 -4.13379c-1.53613 -1.22461 -3.09473 -2.46094 -4.72461 -3.56152c-3.14648 -2.14941 -6.25293 -3.97656 -9.36816 -5.74316l-1.80664 -1.08008
c-2.7832 -1.49414 -5.58691 -2.78223 -8.40234 -4.04004l-0.923828 -0.457031c-0.767578 -0.375 -1.54688 -0.748047 -2.34668 -1.09082c-2.05762 -0.861328 -4.11328 -1.58887 -6.14941 -2.29492l-2.85547 -1.02734
c-1.04883 -0.396484 -2.1084 -0.790039 -3.18848 -1.13281c-1.73535 -0.540039 -3.49023 -0.966797 -5.24512 -1.3916l-3.55273 -0.90332c-1.2666 -0.342773 -2.53418 -0.685547 -3.84277 -0.955078c-1.91211 -0.373047 -3.73926 -0.643555 -5.56738 -0.882812
l-3.25098 -0.487305c-1.46484 -0.249023 -2.91895 -0.488281 -4.41406 -0.633789c-4.33984 -0.446289 -8.86816 -0.685547 -13.3867 -0.685547l-1.04883 0.0214844c-13.1689 0.104492 -26.1201 2.1084 -38.501 6.00293
c-1.33008 0.416016 -2.63867 0.905273 -3.93652 1.40332l-3.37598 1.22461c-1.60938 0.572266 -3.21875 1.14258 -4.77637 1.79688zM144.734 320.625c-0.125 -1.71289 -0.260742 -3.43652 -0.260742 -5.19238c0 -45.0225 26.7979 -85.4668 68.2588 -103.003
c1.16309 -0.487305 2.36719 -0.90332 3.58203 -1.33008l3.90527 -1.42188c0.90332 -0.342773 1.80664 -0.706055 2.73047 -0.99707c10.6777 -3.34375 21.8428 -5.03711 33.2148 -5.04688h0.0205078l0.976562 -0.00976562c3.53125 0.03125 7.00977 0.227539 10.4688 0.591797
c1.06934 0.103516 2.02637 0.269531 2.98145 0.436523l3.94629 0.59082c1.40137 0.197266 2.81348 0.384766 4.19531 0.654297c0.788086 0.166992 1.6709 0.416016 2.56445 0.655273l4.14355 1.05957c1.2998 0.322266 2.6084 0.624023 3.88477 1.01855
c0.654297 0.197266 1.33008 0.466797 1.99414 0.71582l3.42773 1.23633c1.64258 0.572266 3.30371 1.14258 4.88184 1.79688l2.75293 1.33008c2.45117 1.09082 4.80859 2.15918 7.05176 3.36426l1.48535 0.90332c2.67969 1.51758 5.31836 3.04297 7.81055 4.7373
c1.38184 0.956055 2.49316 1.84863 3.59375 2.74219l4.93359 3.76074c25.9131 21.5088 40.7441 52.8232 40.7861 86.0791l0.0625 1.09082c-0.0527344 60.6953 -50.1953 110.84 -111.848 110.84c-58.8271 0 -107.766 -45.999 -111.421 -104.732z" />
    <glyph glyph-name="uniF118" unicode="&#xf118;" 
d="M512 208.117v-32.2354h-365.286v-130.598l-146.714 146.715l146.714 146.716v-130.598h365.286z" />
    <glyph glyph-name="uniF117" unicode="&#xf117;" 
d="M272.118 82.7148h130.596l-146.714 -146.715l-146.714 146.715h130.596v365.285h32.2363v-365.285z" />
    <glyph glyph-name="uniF11B" unicode="&#xf11b;" 
d="M332.066 448l124.467 -124.467v-387.533h-401.066v512h276.6zM337.066 418.867v-90.334h90.334zM72.5332 -46.9336h366.934v358.4h-119.467v119.467h-247.467v-477.867zM362.667 268.8c4.70996 0 8.5332 -3.81445 8.5332 -8.5332s-3.82324 -8.5332 -8.5332 -8.5332
h-136.533c-4.71094 0 -8.53418 3.81445 -8.53418 8.5332s3.82324 8.5332 8.53418 8.5332h136.533zM195.2 292.531c3.67773 2.94434 9.05371 2.35547 11.9893 -1.33105c2.94434 -3.67773 2.35547 -9.0459 -1.33105 -11.998l-42.667 -34.1338
c-1.56152 -1.25391 -3.44727 -1.86816 -5.3252 -1.86816c-2.19238 0 -4.37695 0.844727 -6.03223 2.5l-17.0674 17.0664c-3.33594 3.33691 -3.33594 8.72949 0 12.0664c3.33691 3.33691 8.72949 3.33691 12.0664 0l11.665 -11.665zM362.667 174.934
c4.70996 0 8.5332 -3.81445 8.5332 -8.5332c0 -4.71973 -3.82324 -8.53418 -8.5332 -8.53418h-136.533c-4.71094 0 -8.53418 3.81445 -8.53418 8.53418c0 4.71875 3.82324 8.5332 8.53418 8.5332h136.533zM195.2 198.664c3.67773 2.94434 9.05371 2.35547 11.9893 -1.33105
c2.94434 -3.67773 2.35547 -9.04492 -1.33105 -11.9971l-42.667 -34.1338c-1.56152 -1.25488 -3.44727 -1.86914 -5.3252 -1.86914c-2.19238 0 -4.37695 0.844727 -6.03223 2.50098l-17.0674 17.0664c-3.33594 3.33594 -3.33594 8.72949 0 12.0664
c3.33691 3.33594 8.72949 3.33594 12.0664 0l11.665 -11.665zM362.667 81.0664c4.70996 0 8.5332 -3.81445 8.5332 -8.5332s-3.82324 -8.5332 -8.5332 -8.5332h-136.533c-4.71094 0 -8.53418 3.81445 -8.53418 8.5332s3.82324 8.5332 8.53418 8.5332h136.533zM195.2 104.798
c3.67773 2.94434 9.05371 2.35547 11.9893 -1.33105c2.94434 -3.67773 2.35547 -9.0459 -1.33105 -11.998l-42.667 -34.1328c-1.56152 -1.25488 -3.44727 -1.86914 -5.3252 -1.86914c-2.19238 0 -4.37695 0.844727 -6.03223 2.5l-17.0674 17.0664
c-3.33594 3.33691 -3.33594 8.73047 0 12.0664c3.33691 3.33691 8.72949 3.33691 12.0664 0l11.665 -11.665z" />
    <glyph glyph-name="uniF104" unicode="&#xf104;" 
d="M475.934 339.771c19.8867 0 36.0664 -16.1807 36.0674 -36.0674v-172.837c0 -19.8887 -16.1797 -36.0674 -36.0664 -36.0674h-95.584v-104.515c0 -5.99512 -4.86133 -10.8574 -10.8564 -10.8574h-226.987c-5.99512 0 -10.8564 4.8623 -10.8564 10.8574v104.515h-95.584
c-19.8877 0 -36.0664 16.1807 -36.0664 36.0674v172.837c0 19.8867 16.1787 36.0674 36.0664 36.0654h95.584v53.9453c0 5.99512 4.86133 10.8574 10.8564 10.8574h226.986c5.99512 0 10.8564 -4.8623 10.8564 -10.8574v-53.9434h95.584zM380.349 318.058v-30.3848h25.8975
v30.3848h-25.8975zM153.363 382.858v-95.1865h205.272v95.1865h-205.272zM105.753 318.057v-30.3848h25.8975v30.3848h-25.8975zM358.637 1.1416h-0.000976562v142.979h-205.272v-142.979h205.273zM490.288 130.867v172.837c0 7.91504 -6.44043 14.3535 -14.3535 14.3535
h-47.9736v-41.2402c0 -5.99512 -4.8623 -10.8574 -10.8574 -10.8574h-322.206c-5.99609 0 -10.8574 4.8623 -10.8574 10.8574v41.2402h-47.9736c-7.91309 0 -14.3525 -6.43945 -14.3525 -14.3535v-172.837c0 -7.91504 6.43945 -14.3545 14.3525 -14.3545h95.585v27.6074
h-19.8057c-5.99512 0 -10.8564 4.8623 -10.8564 10.8564c0 5.99512 4.86133 10.8574 10.8564 10.8574h30.6611h226.987h30.6611c5.99512 0 10.8564 -4.8623 10.8564 -10.8574c0 -5.99414 -4.86133 -10.8564 -10.8564 -10.8564h-19.8057v-27.6074h95.585
c7.91309 0 14.3525 6.43945 14.3525 14.3545h0.000976562zM55.1973 228.739c0 7.51172 6.08984 13.6016 13.6016 13.6016c7.5127 0 13.6025 -6.08984 13.6025 -13.6016c0 -7.5127 -6.08984 -13.6025 -13.6025 -13.6025c-7.51172 0 -13.6016 6.08984 -13.6016 13.6025z
M252.849 61.5439c5.99512 0 10.8574 -4.86035 10.8574 -10.8574c0 -5.99414 -4.8623 -10.8564 -10.8574 -10.8564h-50.6797c-5.99609 0 -10.8574 4.8623 -10.8574 10.8564c0 5.99707 4.8623 10.8574 10.8574 10.8574h50.6797zM309.831 116.517
c5.99512 0 10.8555 -4.86133 10.8555 -10.8564c0 -5.99609 -4.86133 -10.8574 -10.8564 -10.8574h-107.661c-5.99609 0 -10.8574 4.86133 -10.8574 10.8574c0 5.99512 4.8623 10.8564 10.8574 10.8564h107.662z" />
    <glyph glyph-name="uniF100" unicode="&#xf100;" 
d="M60.1973 29.3545c6.97656 0 12.6338 -5.65723 12.6348 -12.6338c0 -6.97656 -5.65625 -12.6338 -12.6338 -12.6338h-32.627c-6.97852 0 -12.6348 5.65723 -12.6348 12.6338c0 6.97754 5.65625 12.6338 12.6348 12.6338h32.626zM114.205 -19.3623
c4.93457 -4.93457 4.93359 -12.9336 -0.000976562 -17.8682l-23.0703 -23.0693c-2.46582 -2.4668 -5.7002 -3.70117 -8.93262 -3.70117c-3.2334 0 -6.4668 1.23535 -8.93359 3.70117c-4.93457 4.93457 -4.93359 12.9336 0 17.8682l23.0703 23.0693
c4.93359 4.93457 12.9326 4.93262 17.8672 0zM484.43 23.0381c6.97852 0 12.6348 -5.6582 12.6338 -12.6348c0 -6.97754 -5.65625 -12.6348 -12.6348 -12.6348h-327.665c-11.8105 0 -22.915 4.60059 -31.2656 12.9512l-74.7012 74.6992
c-14.3184 14.3174 -22.2031 33.3545 -22.2031 53.6016c0 20.248 7.88477 39.2842 22.2031 53.6016l247.989 247.99c9.85352 9.85059 25.8818 9.85059 35.7354 0l155.143 -155.154c9.85059 -9.85156 9.84961 -25.8809 -0.000976562 -35.7324l-226.698 -226.688h221.465z
M156.765 23.0381h70.4648l244.566 244.554l-155.142 155.154l-189.564 -189.566l133.334 -133.335c4.93359 -4.93457 4.93262 -12.9336 -0.000976562 -17.8682c-2.4668 -2.46582 -5.7002 -3.7002 -8.93359 -3.7002c-3.23242 0 -6.46582 1.23438 -8.93262 3.7002
l-133.335 133.336l-40.5566 -40.5566c-19.7041 -19.7031 -19.7041 -51.7646 0 -71.4678l74.6982 -74.6992c3.58105 -3.5791 8.33984 -5.55078 13.4014 -5.55078z" />
    <glyph glyph-name="uniF114" unicode="&#xf114;" 
d="M503.842 439.667c7.90332 -7.96875 10.2764 -19.3975 6.1875 -29.8574l-178.31 -456.021c-4.28418 -10.9531 -14.4199 -17.7871 -25.8779 -17.7871c-1.15137 0 -2.31445 0.0673828 -3.48926 0.208008c-12.8516 1.54102 -22.6484 11.1963 -24.3779 24.0234
l-30.0576 222.875c-0.0566406 0.419922 -0.390625 0.751953 -0.807617 0.808594l-222.877 30.0576c-12.8271 1.72949 -22.4805 11.5264 -24.0234 24.3779c-1.53906 12.8516 5.52441 24.6543 17.5801 29.3672l456.017 178.308
c10.4619 4.09082 21.8926 1.7168 29.8604 -6.18555c0.0302734 -0.0273438 0.0615234 -0.0517578 0.0917969 -0.0820312s0.0537109 -0.0615234 0.0839844 -0.0917969zM27.8467 240.747c0 0 225.579 -30.543 226.88 -30.9199l199.556 199.557l-426.654 -166.827
c-0.466797 -0.180664 -0.678711 -0.264648 -0.592773 -0.988281c0.0869141 -0.724609 0.311523 -0.75293 0.811523 -0.821289zM306.558 -36.373l166.826 426.654l-199.555 -199.557c0.376953 -1.30078 30.9199 -226.88 30.9199 -226.88
c0.0664062 -0.49707 0.0966797 -0.723633 0.820312 -0.80957c0.733398 -0.0898438 0.806641 0.125 0.988281 0.591797z" />
    <glyph glyph-name="uniF10F" unicode="&#xf10f;" 
d="M483.667 309.173c18.5352 -35.9443 28.3311 -76.4609 28.3311 -117.172c0 -141.158 -114.841 -255.999 -255.999 -255.999s-255.999 114.841 -255.999 255.999s114.841 255.999 255.999 255.999c5.75293 0 10.4189 -4.66602 10.4189 -10.4189
s-4.66602 -10.4189 -10.4189 -10.4189c-129.667 0 -235.161 -105.492 -235.161 -235.161s105.494 -235.163 235.161 -235.163c129.668 0 235.161 105.494 235.161 235.161c0 37.9395 -8.75195 74.1475 -26.0127 107.622c-16.4746 31.9473 -40.498 60.1582 -69.4746 81.5869
c-4.62695 3.42285 -5.60547 9.94727 -2.18359 14.5732c3.42285 4.62598 9.94531 5.60352 14.5732 2.18262c31.5312 -23.3174 57.6768 -54.0215 75.6045 -88.791zM190.494 310.869c3.25781 1.85254 7.25488 1.81055 10.4785 -0.104492l184.46 -109.809
c3.09961 -1.8457 5.02344 -5.16309 5.08789 -8.76953c0.0634766 -3.60645 -1.74219 -6.98926 -4.77441 -8.94336l-127.573 -82.1943c-4.83789 -3.11816 -11.2832 -1.72266 -14.4023 3.11523c-3.11719 4.83691 -1.7207 11.2842 3.11523 14.4014l113.437 73.085
l-154.26 91.832v-210.325c0 -5.75488 -4.66602 -10.4189 -10.4199 -10.4189c-5.75293 0 -10.4189 4.66406 -10.4189 10.4189v228.654c0 3.74512 2.0127 7.2041 5.27051 9.05762z" />
    <glyph glyph-name="uniF125" unicode="&#xf125;" 
d="M440.139 113.587c20.2949 -19.3291 29.833 -37.5449 29.1582 -55.6895c-0.979492 -26.4395 -22.9785 -44.4824 -42.3867 -60.4004c-3.29199 -2.69922 -6.40234 -5.25098 -9.31445 -7.76562l-0.12793 -0.109375c-8.68945 -7.27148 -20.8496 -10.959 -36.1426 -10.959
c-52.6357 0 -143.943 45.083 -229.272 145.806c-37.3994 43.6016 -67.2725 90.291 -86.3467 134.974c-16.9268 39.6523 -24.9688 77.0771 -22.6445 105.38c1.56836 19.0996 7.87793 33.8057 18.25 42.5381c2.75684 2.37207 5.58887 4.93359 8.58594 7.64453
c17.0986 15.4648 36.4785 32.9951 60.3965 32.9951c20.1904 0 38.5547 -12.4385 56.1445 -38.0273c13.0938 -19.0371 21.0391 -34.8721 24.2617 -48.7354c24.8574 18.4795 55.3672 28.7803 86.5977 28.7803c79.8779 0 144.865 -64.9854 144.865 -144.864
c0 -38.3477 -15.5479 -75.3301 -42.3164 -102.275c12.0918 -5.71875 25.3008 -15.3477 40.2002 -29.2051zM210.046 332.587c-5.2666 -16.2734 -18.6699 -27.2598 -32.8145 -38.8359c-1.33887 -1.09375 -2.69531 -2.20312 -4.0625 -3.33301
c-4.70996 -4.25098 -1.93262 -16.9697 7.44629 -34.0752c9.46387 -17.2598 25.2012 -38.752 48.1104 -65.7061c54.292 -63.4062 77.4502 -72.8789 86.4209 -72.8789c2.43652 0 3.6543 0.776367 4.52344 1.5332c1.70996 1.47754 3.34863 2.91602 4.96289 4.33008
c0.319336 0.27832 0.636719 0.556641 0.955078 0.834961c0.0302734 0.0283203 0.0625 0.0537109 0.0927734 0.0810547c14.6729 12.8525 28.7041 24.7461 48.5049 24.7461c0.329102 0 0.658203 -0.0107422 0.988281 -0.0195312
c28.6562 23.3037 45.6572 58.8545 45.6572 95.8896c0 68.1143 -55.417 123.531 -123.532 123.53c-32.5674 0 -64.2168 -13.1279 -87.2529 -36.0967zM413.382 13.9922c16.7031 13.6992 33.9756 27.8633 34.5986 44.6992c0.427734 11.5059 -7.14746 24.7646 -22.5117 39.4092
c-21.6064 20.0859 -38.3828 29.8516 -51.2822 29.8516c-8.15918 0 -15.4385 -4.00391 -23.2285 -10.0352c5.03125 -3.20898 11.0996 -7.19922 17.3701 -11.5938c7.55762 -5.29785 14.1377 -10.3037 19.5566 -14.874c4.50195 -3.79883 5.07422 -10.5283 1.27539 -15.0322
c-2.10938 -2.50195 -5.12305 -3.78906 -8.1582 -3.78906c-2.42871 0 -4.87109 0.824219 -6.87305 2.5127c-4.93359 4.16211 -11.0059 8.77637 -18.0469 13.7109c-8.4873 5.94824 -16.7031 11.1875 -22.1543 14.5664
c-0.09375 -0.0820312 -0.183594 -0.161133 -0.27832 -0.243164c-5.05762 -4.40332 -11.4668 -6.74902 -18.501 -6.74902c-23.085 0 -55.7031 25.5381 -102.649 80.3672c-23.8809 28.0967 -40.4199 50.7529 -50.5859 69.2939
c-15.4785 28.2236 -16.375 48.5781 -2.66406 60.4971l0.205078 0.173828c1.4375 1.1875 2.8623 2.35352 4.2666 3.50293c13.3828 10.9531 23.9561 19.6055 26.6074 30.9307c2.99609 12.793 -4.02734 31.3379 -21.4688 56.6934
c-13.127 19.0996 -26.1016 28.7812 -38.5654 28.7812c-4.16211 0 -8.3584 -1.03418 -12.5391 -2.7832c6.08887 -6.85645 14.4658 -16.8809 23.3799 -29.3174c3.43262 -4.78906 2.33105 -11.4531 -2.45703 -14.8848c-1.88184 -1.34961 -4.05273 -1.99805 -6.2041 -1.99805
c-3.32324 0 -6.59766 1.54785 -8.67969 4.4541c-9.60938 13.4082 -18.6514 23.9229 -24.3828 30.2266c-5.22852 -4.1582 -10.3281 -8.77051 -15.2051 -13.1816c-3.11523 -2.81738 -6.05859 -5.47949 -9.03027 -8.03516l-0.101562 -0.0869141
c-5.85449 -4.90918 -9.67285 -14.8486 -10.752 -27.9824c-2.0459 -24.9082 5.41406 -58.7383 21.0039 -95.2588c18.2285 -42.7041 46.917 -87.4893 82.96 -129.51c80.5215 -95.0459 166.869 -138.312 213.039 -138.312c9.96777 0 17.709 2.05273 22.3955 5.93848
c3.09863 2.6748 6.28613 5.28906 9.66113 8.05762zM159.143 340.502c-3.73047 0 -7.35156 1.95996 -9.30762 5.44531c-1.31348 2.33789 -2.60645 4.39062 -4.06543 6.45898c-3.39648 4.8125 -2.24805 11.4678 2.56543 14.8652
c4.81445 3.39648 11.4688 2.24707 14.8662 -2.56543c1.88867 -2.67871 3.55273 -5.32031 5.23242 -8.30957c2.88574 -5.13672 1.06055 -11.6396 -4.0752 -14.5244c-1.65234 -0.927734 -3.44531 -1.37012 -5.21582 -1.37012zM413.573 69.3389
c0.21582 -0.219727 1.54297 -1.59668 6.49902 -7.12891c3.93262 -4.38574 3.56348 -11.1299 -0.822266 -15.0615c-2.03613 -1.8252 -4.58105 -2.72461 -7.11719 -2.72461c-2.9248 0 -5.83789 1.19727 -7.94629 3.54688c-4.63086 5.16699 -5.82812 6.41211 -5.87793 6.46289
c-4.07812 4.22754 -3.98633 10.9697 0.223633 15.0664c4.20996 4.0957 10.9268 4.03223 15.041 -0.161133zM321.748 229.886c-3.68457 0 -6.48926 2.50684 -6.49121 6.78516c0 1.17871 0.295898 2.50684 1.03418 3.83496l34.9531 68.7217
c1.77148 3.68848 5.01367 5.0166 8.10742 5.0166c3.39453 0 9.58887 -2.95215 9.58887 -7.37402c0 -0.738281 -0.295898 -1.62402 -0.738281 -2.50879l-28.3164 -56.6299h17.2568v15.4854c0 4.27734 4.86523 6.0459 9.58301 6.0459
c4.87012 0 9.58887 -1.76855 9.58887 -6.0459v-15.4854h6.93066c3.97949 0 6.0459 -4.42773 6.0459 -8.99707c0 -4.4248 -2.95215 -8.84863 -6.0459 -8.84863h-6.93066v-17.4033c0 -3.98145 -4.71875 -6.04688 -9.58887 -6.04688
c-4.7168 0 -9.58301 2.06543 -9.58301 6.04688v17.4033h-35.3945zM245.748 206.436c-3.39453 0 -8.40332 2.36328 -8.40625 6.0459v14.3057c0 23.5938 47.4844 36.1309 47.4844 56.9248c0 6.04492 -3.97949 13.125 -13.7148 13.125
c-7.22656 0 -13.125 -3.83398 -13.125 -12.9766c0 -3.54102 -3.68555 -7.08008 -10.0264 -7.08008c-5.0127 0 -8.70215 2.3584 -8.70215 10.3223c0 16.8135 15.3389 27.1377 31.7061 27.1377c17.1113 0 33.0352 -11.21 33.0352 -29.9395
c0 -31.8525 -46.749 -42.1758 -46.749 -57.5137v-3.54102h40.998c3.24316 0 6.04688 -3.83203 6.04688 -8.25684c0 -4.42285 -2.7998 -8.55371 -6.04688 -8.55371h-52.5zM362.663 -42.667c5.89062 0 10.667 -4.77637 10.667 -10.667
c0 -5.8916 -4.77734 -10.667 -10.667 -10.667h-213.335c-5.88965 0 -10.667 4.77637 -10.667 10.667c0 5.88965 4.77734 10.667 10.667 10.667h213.335z" />
    <glyph glyph-name="uniF123" unicode="&#xf123;" 
d="M499.801 -47.6348c3.69238 -3.84668 3.57617 -9.96582 -0.270508 -13.668c-1.875 -1.79785 -4.28223 -2.69727 -6.69922 -2.69727c-2.54199 0 -5.0752 0.986328 -6.96973 2.96777l-143.983 149.745c-35.1475 -29.1445 -80.2422 -46.709 -129.378 -46.709
c-111.938 0 -202.998 91.0586 -202.998 202.998c0 111.938 91.0596 202.998 202.998 202.998c111.939 0 202.999 -91.0596 202.999 -202.998c0 -55.8633 -22.6973 -106.517 -59.334 -143.259zM212.5 61.3369c101.268 0 183.665 82.3887 183.665 183.665
s-82.3877 183.665 -183.665 183.665c-101.276 0 -183.665 -82.3887 -183.665 -183.665s82.3887 -183.665 183.665 -183.665z" />
    <glyph glyph-name="uniF11A" unicode="&#xf11a;" 
d="M506.552 130.067c8.90137 -13.082 6.69238 -30.8691 -5.14062 -41.374l-101.611 -91.3887c-0.0869141 -0.0791016 -0.176758 -0.155273 -0.267578 -0.229492c-10.4932 -8.55859 -23.1084 -14.2109 -36.4805 -16.3467
c-0.0371094 -0.00585938 -0.0732422 -0.0117188 -0.109375 -0.0166016l-157.281 -22.6719c-2.44238 -0.385742 -4.90918 -0.579102 -7.39355 -0.579102c-4.5918 0 -9.24219 0.65918 -13.8955 1.97266c-0.204102 0.0576172 -0.405273 0.123047 -0.603516 0.198242
l-107.023 40.5283v-0.993164c0 -14.7119 -11.9688 -26.6797 -26.6797 -26.6797h-23.3857c-14.7109 0 -26.6797 11.9688 -26.6797 26.6797v12.7881c0 4.03613 3.27246 7.30762 7.30762 7.30762c4.03613 0 7.30859 -3.27148 7.30859 -7.30762v-12.7881
c0 -6.65234 5.41211 -12.0645 12.0635 -12.0645h23.3857c6.65137 0 12.0635 5.41211 12.0635 12.0645v11.5752v149.796v11.6895c0 6.65234 -5.41211 12.0645 -12.0635 12.0645h-23.3857c-6.65137 0 -12.0635 -5.41211 -12.0635 -12.0645v-114.518
c0 -4.03613 -3.27246 -7.30762 -7.30859 -7.30762c-4.03516 0 -7.30762 3.27148 -7.30762 7.30762v114.518c0 14.7129 11.9688 26.6807 26.6797 26.6797h23.3867c14.7109 0 26.6797 -11.9688 26.6797 -26.6807v-4.38184h12.5049
c7.44824 0 14.8623 -0.55957 22.1904 -1.62695l-0.0908203 64.291l-22.6484 -21.3359c-4.84961 -4.57031 -11.1318 -7.05957 -17.7676 -7.05957c-0.264648 0 -0.529297 0.00390625 -0.794922 0.0117188c-6.92676 0.207031 -13.3574 3.09863 -18.1074 8.14258
c-4.75098 5.04199 -7.25391 11.6348 -7.04688 18.5605s3.09766 13.3564 8.1416 18.1074l59.4395 55.9932l-0.116211 71.0869c-0.00488281 3.10742 1.20117 6.02832 3.39258 8.22754c2.19336 2.19922 5.11035 3.41309 8.21582 3.41699l41.9473 0.0585938h0.0175781
c3.09961 0 6.01367 -1.20508 8.20898 -3.39355c2.19824 -2.19238 3.41211 -5.11035 3.41699 -8.21582l0.015625 -9.85352l58.6387 55.2402c9.94727 9.37207 25.5498 9.39258 35.5234 0.0488281l107.166 -100.392c2.94531 -2.76074 3.0957 -7.38477 0.336914 -10.3301
c-2.75977 -2.94629 -7.38477 -3.09668 -10.3301 -0.336914l-107.167 100.392c-4.35254 4.08008 -11.165 4.07031 -15.5068 -0.0205078l-183.177 -172.559c-2.20117 -2.07422 -3.46484 -4.88086 -3.55469 -7.90527c-0.0908203 -3.02246 1.00195 -5.90039 3.07617 -8.10156
c2.07422 -2.20312 4.88086 -3.46582 7.90527 -3.55566c3.02344 -0.0839844 5.90137 1.00195 8.10254 3.0752l170.438 160.559c2.80859 2.64648 7.19043 2.65137 10.0068 0.0136719l170.882 -160.079l0.000976562 -0.000976562
c2.10742 -1.97363 4.85449 -3.05957 7.7373 -3.05957h0.0166016c3.16211 0.00390625 6.0918 1.27539 8.25195 3.58203c2.06934 2.20703 3.15332 5.08789 3.05566 8.11035c-0.0996094 3.02344 -1.36914 5.82715 -3.57715 7.89551l-43.0352 40.3145
c-2.94531 2.75977 -3.0957 7.38379 -0.336914 10.3291c2.75879 2.94629 7.38379 3.09766 10.3301 0.337891l43.0352 -40.3145c5.05664 -4.7373 7.9668 -11.1602 8.19238 -18.0859c0.226562 -6.92578 -2.25879 -13.5244 -6.99609 -18.5811
c-4.87598 -5.20508 -11.7637 -8.19531 -18.8975 -8.20508h-0.0390625c-6.6084 0 -12.9023 2.48828 -17.7295 7.00879l-22.6992 21.2656l0.189453 -136.11l65.3398 43.7275c14.3564 9.64844 33.9688 5.86035 43.707 -8.45117zM163.037 371.098l-35.9668 -0.0488281
l0.0888672 -54.3711l35.9121 33.8301zM254.141 365.024l-128.192 -120.764l0.112305 -80.8779c0.482422 -0.119141 0.958008 -0.257812 1.4375 -0.380859c1.02344 -0.261719 2.04492 -0.527344 3.06152 -0.80957c0.779297 -0.216797 1.55371 -0.444336 2.32812 -0.672852
c0.902344 -0.266602 1.80371 -0.536133 2.7002 -0.819336c0.841797 -0.265625 1.67969 -0.538086 2.51562 -0.817383c0.824219 -0.274414 1.64453 -0.556641 2.46387 -0.845703c0.873047 -0.306641 1.74316 -0.620117 2.61035 -0.944336
c0.78125 -0.291992 1.55957 -0.59375 2.33594 -0.897461c0.875977 -0.34375 1.75098 -0.688477 2.62109 -1.04688c0.77832 -0.321289 1.55078 -0.657227 2.32422 -0.991211c0.845703 -0.366211 1.69336 -0.729492 2.5332 -1.11035
c0.825195 -0.375 1.64258 -0.767578 2.46191 -1.15723c0.771484 -0.366211 1.54688 -0.726562 2.3125 -1.10645c0.961914 -0.477539 1.91211 -0.977539 2.86426 -1.47461c0.615234 -0.320312 1.23535 -0.629883 1.84473 -0.958984
c1.56543 -0.84375 3.11719 -1.71191 4.6543 -2.61035c12.3174 -7.20508 25.4912 -12.4141 39.2881 -15.5684l-0.116211 82.7812c-0.00488281 3.53223 1.36621 6.85547 3.86133 9.35645c2.49414 2.50195 5.81348 3.88281 9.34668 3.8877l69.6543 0.0976562h0.0175781
c7.28516 0 13.2178 -5.9209 13.2275 -13.207l0.131836 -94.9453c20.0088 -3.93457 35.1406 -20.4238 37.1797 -40.9219l0.579102 -5.81934l21.9111 -1.22949l20.6914 13.8477l-0.223633 159.594zM287.923 120.971l-0.12793 91.7051l-66.874 -0.09375l0.118164 -83.9111
l5.75879 -0.663086zM491.673 99.5898c6.38867 5.67383 7.57617 15.2295 2.79395 22.2549c-5.23047 7.68848 -15.7646 9.72363 -23.4814 4.53613l-76.7021 -51.332l-0.00292969 -0.00292969l-25.9727 -17.3809c-0.31543 -0.211914 -0.647461 -0.393555 -0.988281 -0.551758
c-0.120117 -0.0566406 -0.246094 -0.09375 -0.368164 -0.142578c-0.227539 -0.0908203 -0.452148 -0.181641 -0.686523 -0.249023c-0.149414 -0.0439453 -0.303711 -0.0683594 -0.457031 -0.102539c-0.213867 -0.046875 -0.426758 -0.09375 -0.644531 -0.12207
c-0.162109 -0.0205078 -0.325195 -0.0263672 -0.488281 -0.0361328c-0.143555 -0.00878906 -0.287109 -0.0322266 -0.431641 -0.0322266c-0.135742 0 -0.272461 0.00292969 -0.40918 0.0117188l-30.5967 1.7168
c-0.0390625 0.00292969 -0.0761719 0.00878906 -0.114258 0.0117188s-0.0761719 0.00195312 -0.115234 0.00488281l-162.242 14.2148c-4.01953 0.352539 -6.99414 3.89746 -6.6416 7.91797c0.351562 4.02051 3.90039 6.99316 7.91797 6.64258l153.46 -13.4453
l-0.325195 3.27051c-0.181641 1.82227 -0.513672 3.60059 -0.985352 5.31836c-3.18359 11.5996 -12.6973 20.5059 -24.751 22.7705c-0.447266 0.0839844 -0.897461 0.15918 -1.35059 0.223633l-81.8809 9.42676c-0.0625 0.0078125 -0.125 0.015625 -0.1875 0.0244141
c-19.9482 2.82324 -38.8809 9.41211 -56.2715 19.585c-1.20508 0.705078 -2.42188 1.38477 -3.64648 2.05176c-0.228516 0.124023 -0.456055 0.25 -0.685547 0.373047c-1.21289 0.652344 -2.43262 1.28906 -3.66309 1.9043
c-0.147461 0.0742188 -0.296875 0.145508 -0.445312 0.21875c-1.25879 0.625 -2.52539 1.2334 -3.80176 1.81934c-0.0351562 0.0166016 -0.0712891 0.0341797 -0.105469 0.0498047c-1.32031 0.603516 -2.64941 1.18457 -3.98633 1.74707
c-0.146484 0.0615234 -0.291992 0.123047 -0.438477 0.183594c-2.68164 1.11816 -5.39746 2.15137 -8.14062 3.09863c-0.135742 0.046875 -0.270508 0.0947266 -0.407227 0.141602c-1.31641 0.450195 -2.64062 0.878906 -3.9707 1.29004
c-0.222656 0.0693359 -0.448242 0.135742 -0.671875 0.204102c-1.25 0.378906 -2.50391 0.742188 -3.7627 1.08594c-0.110352 0.0302734 -0.219727 0.0615234 -0.329102 0.0917969c-1.25586 0.339844 -2.51855 0.654297 -3.7832 0.958984
c-0.381836 0.0917969 -0.763672 0.183594 -1.14746 0.272461c-10.2959 2.38672 -20.8682 3.61621 -31.5137 3.61621h-12.5049v-137.44l111.891 -42.3721c5.02148 -1.37793 9.98145 -1.69629 14.7441 -0.942383l0.109375 0.0175781
c0.0332031 0.00488281 0.0644531 0.00976562 0.0976562 0.0146484l157.213 22.6621c10.7549 1.72656 20.9023 6.2627 29.3613 13.1221z" />
    <glyph glyph-name="uniF112" unicode="&#xf112;" 
d="M507.47 446.371c2.82715 -1.8457 4.53027 -4.99512 4.53027 -8.37109v-431.342c0 -3.37598 -1.7041 -6.52441 -4.53027 -8.37109c-1.65137 -1.0791 -3.55566 -1.62891 -5.4707 -1.62891c-1.3623 0 -2.72949 0.277344 -4.01367 0.84082l-160.059 70.1621
l-74.8613 -74.7383c-1.91309 -1.90918 -4.46875 -2.92285 -7.06836 -2.92285c-1.28906 0 -2.58984 0.249023 -3.82812 0.762695c-3.73438 1.54883 -6.16895 5.19434 -6.16895 9.2373v107.958l-240.015 105.212c-3.63672 1.59473 -5.98535 5.18945 -5.98535 9.15918
s2.34863 7.56348 5.98535 9.15918l492 215.671c3.0918 1.35449 6.6582 1.05762 9.48438 -0.788086zM249.898 128.087l220.233 285.025l-435.224 -190.783l169.119 -74.1338l97.6543 126.384c3.37695 4.37012 9.65723 5.17578 14.0273 1.79883
s5.17578 -9.65723 1.79883 -14.0273l-94.6006 -122.432zM266 24.1143l52.2568 52.1699l-52.2568 22.9072v-75.0771zM492 21.96v386.743l-223.222 -288.893zM343.622 33.1797c4.37012 -3.37695 5.17578 -9.65625 1.79883 -14.0264l-61.249 -79.2676
c-1.96973 -2.5498 -4.92871 -3.88574 -7.91992 -3.88574c-2.13477 0 -4.28711 0.679688 -6.10742 2.08691c-4.36914 3.37695 -5.17578 9.65723 -1.79883 14.0273l61.249 79.2666c3.37695 4.37012 9.65723 5.1748 14.0273 1.79883zM137.146 -46.0088
c4.36719 -3.37988 5.16895 -9.66113 1.78809 -14.0283l-0.0625 -0.0820312c-1.9707 -2.54688 -4.92676 -3.88086 -7.91602 -3.88086c-2.13672 0 -4.29102 0.682617 -6.1123 2.0918c-4.36816 3.37988 -5.16895 9.66016 -1.78906 14.0283l0.0634766 0.0820312
c3.37988 4.36719 9.66016 5.16797 14.0283 1.78906zM214.591 54.2324c4.37109 -3.37695 5.17578 -9.6582 1.79883 -14.0273l-57.8066 -74.8135c-1.96973 -2.5498 -4.92871 -3.88574 -7.91992 -3.88574c-2.13477 0 -4.28711 0.679688 -6.10742 2.08691
c-4.37012 3.37695 -5.17578 9.65723 -1.79883 14.0273l57.8076 74.8125c3.37695 4.37012 9.65625 5.17676 14.0264 1.7998zM338.483 305.84c4.36719 -3.38086 5.16797 -9.66211 1.78809 -14.0293l-0.12207 -0.157227c-1.97168 -2.5459 -4.92773 -3.87988 -7.91504 -3.87988
c-2.13867 0 -4.29199 0.681641 -6.11426 2.0918c-4.36719 3.38086 -5.16797 9.66211 -1.78809 14.0283l0.12207 0.158203c3.38086 4.36816 9.66113 5.16797 14.0293 1.78809z" />
    <glyph glyph-name="uniF109" unicode="&#xf109;" 
d="M0 163.556v56.8887h56.8887v-56.8887h-56.8887zM0 49.7773v56.8896h56.8887v-56.8896h-56.8887zM0 277.333v56.8896h56.8887v-56.8896h-56.8887zM113.777 163.556v56.8887h398.223v-56.8887h-398.223zM113.777 49.7773v56.8896h398.223v-56.8896h-398.223z
M113.777 334.223h398.223v-56.8896h-398.223v56.8896z" />
    <glyph glyph-name="uniF105" unicode="&#xf105;" 
d="M292.226 60.1875c4.12988 -0.430664 7.12793 -4.12695 6.69727 -8.25781l-2.5166 -24.1172c-0.400391 -3.83008 -3.62793 -6.73828 -7.47852 -6.73828h-65.8545c-3.85059 0 -7.07812 2.9082 -7.47852 6.7373l-6.9502 66.5947
c-81.7402 -8.37207 -142.389 -38.1104 -142.389 -70.5c0 -24.1025 33.8564 -47.5664 88.3545 -61.2295c4.02832 -1.00977 6.47461 -5.09375 5.46387 -9.12012c-0.855469 -3.41406 -3.91992 -5.69043 -7.28516 -5.69043c-0.605469 0 -1.22168 0.0751953 -1.83496 0.227539
c-62.4502 15.6572 -99.7324 43.998 -99.7324 75.8125c0 21.957 17.0244 41.9707 49.2344 57.876c27.6045 13.6318 65.208 23.3311 106.63 27.5781l-3.63477 34.8203c-14.8271 1.35449 -26.8408 13.3809 -27.8975 28.4902l-4.48535 64.1045
c-0.291016 4.1416 2.83203 7.7334 6.97461 8.02344c4.14648 0.291016 7.7334 -2.83203 8.02344 -6.97363l4.48633 -64.1035c0.574219 -8.20605 7.4668 -14.6328 15.6914 -14.6328h3.99316c3.84863 0 7.07617 -2.9082 7.47656 -6.7373l12.1328 -116.24h52.3076
l1.8125 17.3789c0.430664 4.12793 4.12402 7.12793 8.25879 6.69727zM411.849 81.6338c32.0107 -15.8828 48.9316 -35.8447 48.9316 -57.7256c0 -24.7334 -22.1826 -47.3926 -62.459 -63.8066c-38.1367 -15.543 -88.6797 -24.1016 -142.321 -24.1016
c-25.8574 0 -51.0361 1.98047 -74.8379 5.88477c-4.09863 0.670898 -6.875 4.53809 -6.20215 8.63574c0.670898 4.09668 4.54199 6.87695 8.63477 6.2002c22.999 -3.77148 47.3594 -5.68555 72.4033 -5.68555c51.7412 0 100.27 8.16504 136.647 22.9902
c33.7432 13.752 53.0967 31.9336 53.0967 49.8828c0 32.333 -60.708 62.1279 -142.388 70.498l-1.30664 -12.5146c-0.40332 -3.86426 -3.66699 -6.73828 -7.46875 -6.73828c-0.260742 0 -0.523438 0.0136719 -0.789062 0.0410156
c-4.12988 0.432617 -7.12891 4.12793 -6.69727 8.25781l7.19141 68.9014c0.400391 3.8291 3.62793 6.7373 7.47754 6.7373h3.99219c8.22461 0 15.1182 6.42773 15.6924 14.6328l7.96973 113.904c0.729492 10.4248 -2.79395 20.375 -9.91992 28.0176
s-16.8057 11.8516 -27.2559 11.8516h-72.4834c-10.4492 0 -20.1289 -4.20898 -27.2559 -11.8516c-7.125 -7.64258 -10.6494 -17.5918 -9.91895 -28.0176l1.38086 -19.7422c0.291016 -4.1416 -2.83203 -7.7334 -6.97461 -8.02441
c-4.14648 -0.288086 -7.7334 2.83203 -8.02344 6.97363l-1.38086 19.7432c-1.00879 14.418 4.06543 28.751 13.9229 39.3213c9.08691 9.74512 21.6484 15.6465 34.8789 16.5098c-12.6338 11.0537 -20.6367 27.2744 -20.6367 45.3398c0 33.2217 27.0283 60.251 60.251 60.251
s60.252 -27.0293 60.252 -60.25c0 -18.0664 -8.00293 -34.2861 -20.6367 -45.3398c13.2314 -0.863281 25.793 -6.76465 34.8799 -16.5107c9.85645 -10.5713 14.9316 -24.9033 13.9219 -39.3203l-7.96973 -113.905c-1.05762 -15.1094 -13.0693 -27.1357 -27.8965 -28.4912
l-3.63477 -34.8223c41.5723 -4.2627 79.3115 -14.0225 106.933 -27.7266zM256 342.532c24.9316 0 45.2158 20.2842 45.2158 45.2168c0 24.9316 -20.2842 45.2158 -45.2158 45.2158s-45.2158 -20.2832 -45.2158 -45.2158s20.2842 -45.2168 45.2158 -45.2168z" />
    <glyph glyph-name="uniF11F" unicode="&#xf11f;" 
d="M405.688 119.069c50.499 0 91.6416 -41.0361 91.6416 -91.5342c0 -50.499 -41.0371 -91.5352 -91.5352 -91.5352s-91.5352 41.1426 -91.5352 91.5352c0 10.6309 1.91406 20.9434 5.31641 30.5117l-140.545 78.5645c-16.7979 -21.9004 -43.1631 -36.04 -72.7178 -36.04
c-50.499 0 -91.6416 41.0371 -91.6416 91.5352s41.1426 91.5352 91.5352 91.5352c29.5547 0 55.9199 -14.0332 72.6113 -35.9336l140.438 78.458c-3.40234 9.46191 -5.20898 19.668 -5.20898 30.2988c0 50.499 41.0361 91.5352 91.5342 91.5352
c50.499 0 91.5352 -41.0361 91.5352 -91.5352c0 -50.498 -41.1426 -91.5342 -91.5352 -91.5342c-29.5547 0 -55.9199 14.1387 -72.6113 35.9336l-140.545 -78.459c3.40234 -9.56836 5.20996 -19.668 5.20996 -30.2988c0 -10.5254 -1.80762 -20.7314 -5.10352 -30.1924
l140.651 -78.5654c16.7979 21.6875 43.0566 35.7207 72.5049 35.7207zM405.688 419.189c-34.5518 0 -62.8301 -28.1729 -62.8301 -62.8311c0 -34.6572 28.1729 -62.8301 62.8301 -62.8301c34.6582 0 62.8311 28.1729 62.8311 62.8301
c0 34.6582 -28.1729 62.8311 -62.8311 62.8311zM106.312 129.275c34.5518 0 62.8301 28.1729 62.8301 62.8311c0 34.6572 -28.1729 62.8301 -62.8301 62.8301c-34.6582 0 -62.8311 -28.1729 -62.8311 -62.8301c0 -34.6582 28.1729 -62.8311 62.8311 -62.8311z
M405.688 -35.1895c34.6582 0 62.8311 28.1729 62.8311 62.8311c0 34.6572 -28.1729 62.8301 -62.8311 62.8301c-34.6572 0 -62.8301 -28.1729 -62.8301 -62.8301c0 -34.6582 28.1729 -62.8311 62.8301 -62.8311z" />
    <glyph glyph-name="uniF116" unicode="&#xf116;" 
d="M402.714 301.285h-130.596v-365.285h-32.2363v365.285h-130.596l146.714 146.715z" />
    <glyph glyph-name="uniF103" unicode="&#xf103;" 
d="M405.966 252.889c58.6133 -0.849609 106.033 -48.7939 106.034 -107.602c0 -59.3398 -48.2773 -107.614 -107.616 -107.614h-89.1104c-6.0293 0 -10.9189 4.8877 -10.9189 10.9189s4.88965 10.9189 10.9189 10.9189h89.1104c47.2979 0 85.7783 38.4795 85.7783 85.7764
c0 47.2988 -38.4814 85.7783 -85.7783 85.7783c-2.87402 0 -5.80371 -0.147461 -8.70801 -0.44043c-3.20898 -0.320312 -6.3877 0.787109 -8.69629 3.03027c-2.3125 2.24316 -3.51465 5.39258 -3.28711 8.60449l0.0810547 1.11719
c0.188477 2.63086 0.368164 5.11426 0.368164 7.52441c0 66.9336 -54.4541 121.389 -121.389 121.389c-29.5146 0 -57.9453 -10.7334 -80.0566 -30.2256c-21.9053 -19.3115 -36.1348 -45.8184 -40.0664 -74.6377c-0.792969 -5.80078 -6.02051 -9.94141 -11.8418 -9.39648
c-3.43555 0.323242 -6.52539 0.480469 -9.44824 0.480469c-54.8662 0 -99.502 -44.6367 -99.502 -99.501c0 -54.8652 44.6357 -99.501 99.502 -99.501h84.7432c6.02832 0 10.9189 -4.8877 10.9189 -10.9189s-4.89062 -10.9189 -10.9189 -10.9189h-84.7432
c-66.9062 0 -121.34 54.4326 -121.34 121.339c0 66.9053 54.4336 121.339 121.339 121.339c0.456055 0 0.913086 -0.00390625 1.37402 -0.00976562c6.31055 30.1299 22.2471 57.5713 45.543 78.1064c26.1016 23.0098 59.6631 35.6816 94.498 35.6816
c78.3105 0 142.144 -63.1777 143.212 -141.238zM262.755 342.809c6.0293 0 10.9189 -4.88965 10.918 -10.9189c0 -6.03125 -4.88867 -10.9189 -10.9189 -10.9189c-34.791 0 -64.5742 -26.002 -69.2773 -60.4824c-0.745117 -5.47363 -5.42871 -9.44434 -10.8037 -9.44434
c-0.491211 0 -0.988281 0.0341797 -1.48926 0.102539c-5.97363 0.814453 -10.1582 6.32031 -9.34277 12.2949c6.17188 45.2461 45.2559 79.3672 90.9141 79.3672zM312.409 127.948c4.49707 -4.01758 4.88574 -10.9199 0.871094 -15.418
c-2.1582 -2.41602 -5.14551 -3.64453 -8.14746 -3.64453c-2.58984 0 -5.18848 0.915039 -7.27051 2.77637l-26.2646 23.4629v-134.333c0 -6.03125 -4.88965 -10.9189 -10.9189 -10.9189c-6.03125 0 -10.9189 4.8877 -10.9189 10.9189v134.331l-26.2646 -23.4619
c-4.49902 -4.01855 -11.4004 -3.62793 -15.418 0.868164c-4.0166 4.49805 -3.62891 11.4014 0.869141 15.418l39.7178 35.4824c6.85059 6.11816 17.1807 6.11914 24.0273 -0.000976562z" />
    <glyph glyph-name="uniF11C" unicode="&#xf11c;" 
d="M405.759 391.795c26.8262 0 48.6514 -21.8252 48.6504 -48.6514v-151.03c0 -26.8262 -21.8262 -48.6514 -48.6514 -48.6514h-111.544v-196.136c0 -6.25488 -5.07031 -11.3242 -11.3252 -11.3242h-53.7773c-6.25488 0 -11.3252 5.06934 -11.3252 11.3242v196.138h-111.544
c-26.8252 0 -48.6514 21.8232 -48.6514 48.6514v151.028c0 26.8262 21.8262 48.6514 48.6514 48.6514h111.546v44.8809c0 6.25391 5.07031 11.3242 11.3242 11.3242h53.7783c6.25391 0 11.3242 -5.07031 11.3242 -11.3242v-44.8809h111.544zM431.762 192.113v151.03
c0 14.3389 -11.6641 26.0029 -26.0029 26.0029h-299.517c-14.3379 0 -26.002 -11.6641 -26.002 -26.0029v-151.03c0 -14.3389 11.6641 -26.0029 26.002 -26.0029h299.517c14.3389 0 26.0029 11.6641 26.0029 26.0029zM240.436 425.352v-33.5566h31.1289v33.5566h-31.1289z
M271.564 -41.3516v184.813h-31.1289v-184.813h31.1289zM101.211 360.346c2.97656 0 5.88867 -1.21289 8.00879 -3.31641c2.10254 -2.10352 3.31641 -5.03125 3.31641 -8.00781s-1.21387 -5.88867 -3.31641 -8.00781c-2.11816 -2.10352 -5.03027 -3.31641 -8.00879 -3.31641
c-2.97656 0 -5.90332 1.21289 -8.00586 3.31641c-2.12109 2.11914 -3.31836 5.03125 -3.31836 8.00781s1.19727 5.9043 3.31836 8.00781c2.10254 2.10352 5.0293 3.31641 8.00586 3.31641zM410.789 360.346c2.99121 0 5.9043 -1.21289 8.00781 -3.31641
c2.11914 -2.10352 3.31641 -5.03125 3.31641 -8.00781s-1.19727 -5.88867 -3.31641 -8.00781c-2.10352 -2.10352 -5.01562 -3.31641 -8.00781 -3.31641c-2.97656 0 -5.8877 1.21289 -8.00879 3.31641c-2.10254 2.10254 -3.31641 5.03125 -3.31641 8.00781
s1.21387 5.9043 3.31641 8.00781c2.10352 2.10352 5.03223 3.31641 8.00879 3.31641zM151.377 315.467c15.5352 0 28.1738 -12.6377 28.1738 -28.1738v-7.6709c0 -14.3906 -10.8525 -26.2744 -24.7988 -27.9502l21.6211 -22.4004
c4.34375 -4.49902 4.21582 -11.6689 -0.283203 -16.0127c-2.19727 -2.12012 -5.03125 -3.17578 -7.8623 -3.17578c-2.96484 0 -5.92773 1.15918 -8.14844 3.46094l-21.8955 22.6826v-14.8184c0 -6.25488 -5.06934 -11.3252 -11.3242 -11.3252
c-6.25391 0 -11.3242 5.07031 -11.3242 11.3252v82.7344c0 6.25391 5.07031 11.3242 11.3242 11.3242h24.5176zM156.901 279.624v7.66895c0 3.04492 -2.47852 5.52344 -5.52441 5.52344h-13.1934v-18.7178h13.1934c3.0459 0 5.52441 2.47852 5.52441 5.52539z
M214.494 292.818c-1.01855 0 -1.84863 -0.830078 -1.84863 -1.84766v-16.8701h30.042c6.25391 0 11.3242 -5.07031 11.3242 -11.3242c0 -6.25488 -5.07031 -11.3252 -11.3242 -11.3252h-30.042v-16.8701c0 -1.01855 0.830078 -1.84863 1.84863 -1.84863h28.1943
c6.25488 0 11.3252 -5.07031 11.3252 -11.3242c0 -6.25488 -5.07031 -11.3252 -11.3252 -11.3252h-28.1943c-13.5078 0 -24.498 10.9902 -24.498 24.498v56.3896c0 13.5088 10.9902 24.4961 24.498 24.4961h28.1943c6.25488 0 11.3252 -5.07031 11.3252 -11.3242
s-5.07031 -11.3242 -11.3252 -11.3242h-28.1943zM391.611 315.467c6.25586 0 11.3252 -5.07031 11.3252 -11.3242s-5.07031 -11.3242 -11.3252 -11.3242h-9.3584v-71.4102c0 -6.25488 -5.07031 -11.3252 -11.3242 -11.3252c-6.25488 0 -11.3252 5.07031 -11.3252 11.3252
v71.4102h-9.3584c-6.25391 0 -11.3242 5.07031 -11.3242 11.3242s5.07031 11.3242 11.3242 11.3242h41.3662zM317.15 315.467c6.25391 0 11.3242 -5.07031 11.3242 -11.3242v-82.7344c0 -5.25293 -3.6123 -9.81543 -8.72266 -11.0225
c-0.869141 -0.205078 -1.74219 -0.303711 -2.60449 -0.303711c-4.21484 0 -8.17676 2.36035 -10.126 6.26074l-19.915 39.8281v-34.7627c0 -6.25488 -5.07031 -11.3252 -11.3242 -11.3252s-11.3242 5.07031 -11.3242 11.3252v82.7344
c0 5.25293 3.6123 9.81543 8.72266 11.0215c5.10938 1.20898 10.3818 -1.25781 12.7305 -5.95605l19.915 -39.8281v34.7627c0 6.25391 5.06934 11.3242 11.3242 11.3242z" />
    <glyph glyph-name="uniF106" unicode="&#xf106;" 
d="M417.603 223.227c60.8721 -17.4092 94.3975 -43.4121 94.3975 -73.2178c0 -16.168 -10.1113 -39.7969 -58.2793 -60.5547c-33.876 -14.5977 -81.4316 -25.2139 -133.907 -29.8926c-0.314453 -0.0273438 -0.630859 -0.0419922 -0.947266 -0.0419922
c-0.0478516 0 -0.0957031 0.00195312 -0.145508 0.00195312l-44.2441 0.598633c-5.88867 0.0791016 -10.6006 4.91992 -10.5205 10.8096c0.0791016 5.8418 4.83887 10.5234 10.6631 10.5234c0.0488281 0 0.0976562 -0.000976562 0.147461 -0.000976562l43.6943 -0.592773
c50.0615 4.50684 95.0811 14.5127 126.817 28.1875c28.8447 12.4297 45.3887 27.3594 45.3887 40.9619c0 18.5859 -30.2441 38.7822 -78.9316 52.707c-5.66309 1.61914 -8.94141 7.52441 -7.32129 13.1885c1.61914 5.66406 7.52344 8.94336 13.1885 7.32227z
M103.338 235.378h43.8623v44.0889h-43.8623c-5.89062 0 -10.667 4.77539 -10.667 10.667c0 5.89062 4.77637 10.666 10.667 10.666h54.5283c5.8916 0 10.667 -4.77539 10.667 -10.666v-130.844c0 -5.8916 -4.77539 -10.667 -10.667 -10.667h-54.5283
c-5.89062 0 -10.667 4.77539 -10.667 10.667c0 5.89062 4.77637 10.666 10.667 10.666h43.8623v44.0889h-43.8623c-5.89062 0 -10.667 4.77539 -10.667 10.667c0 5.89062 4.77637 10.666 10.667 10.666zM201.471 148.622c-5.89062 0 -10.666 4.77539 -10.666 10.666v130.846
c0 5.89062 4.77539 10.666 10.666 10.666h54.5293c5.8916 0 10.667 -4.77539 10.667 -10.666c0 -5.8916 -4.77539 -10.667 -10.667 -10.667h-43.8623v-44.0898h54.7559c5.8916 0 10.667 -4.77539 10.667 -10.667v-65.4219c0 -5.89062 -4.77637 -10.666 -10.667 -10.666
h-65.4229zM212.138 214.045v-44.0889h44.0898v44.0889h-44.0898zM310.529 148.622c-5.89062 0 -10.667 4.77539 -10.667 10.666v130.846c0 5.89062 4.77637 10.666 10.667 10.666h65.4229c5.88965 0 10.667 -4.77539 10.667 -10.666v-130.846
c0 -5.89062 -4.77734 -10.666 -10.667 -10.666h-65.4229zM321.195 279.467v-109.512h44.0898v109.512h-44.0898zM195.048 122.094l36.3867 -43.0117c1.62891 -1.92578 2.52246 -4.36621 2.52246 -6.88867v-0.81543c0 -2.63965 -0.978516 -5.18555 -2.74707 -7.14551
l-38.8135 -43.0137c-2.10547 -2.33301 -5.00879 -3.52051 -7.92188 -3.52051c-2.54688 0 -5.10254 0.90625 -7.14258 2.74805c-4.37402 3.94531 -4.71973 10.6904 -0.773438 15.0645l21.2744 23.5771c-51.1992 4.14844 -97.7734 13.7695 -132.508 27.4756
c-42.7354 16.8623 -65.3252 38.8008 -65.3252 63.4453c0 14.873 8.18555 28.752 24.3281 41.2529c13.915 10.7725 33.4785 20.292 58.1494 28.2949c5.60254 1.81641 11.6201 -1.25293 13.4375 -6.85547c1.81738 -5.60449 -1.25195 -11.6211 -6.85547 -13.4385
c-42.4082 -13.7559 -67.7266 -32.168 -67.7266 -49.2539c0 -14.7148 18.8887 -30.6064 51.8223 -43.6025c33.5244 -13.2275 79.1191 -22.4541 129.461 -26.293l-23.8564 28.2021c-3.80371 4.49805 -3.24316 11.2285 1.25488 15.0332
c4.49707 3.80469 11.2275 3.24219 15.0332 -1.25488zM406.842 301.349c-5.89062 0 -10.667 4.77539 -10.667 10.666v43.6201c0 5.8916 4.77637 10.667 10.667 10.667h43.6045c5.88965 0 10.666 -4.77539 10.666 -10.667v-43.6201
c0 -5.89062 -4.77637 -10.666 -10.666 -10.666h-43.6045zM417.508 344.969v-22.2871h22.2715v22.2871h-22.2715z" />
    <glyph glyph-name="uniF121" unicode="&#xf121;" 
d="M487.609 423.618c32.5176 -32.5176 32.5176 -85.4316 -0.00976562 -117.959l-334.194 -334.194c-0.0742188 -0.0742188 -0.166992 -0.111328 -0.241211 -0.185547c-0.212891 -0.194336 -0.444336 -0.324219 -0.666992 -0.5
c-0.574219 -0.454102 -1.19531 -0.833984 -1.8623 -1.14062c-0.305664 -0.138672 -0.602539 -0.258789 -0.917969 -0.361328c-0.240234 -0.0830078 -0.462891 -0.22168 -0.712891 -0.277344l-137.615 -32.7588c-0.704102 -0.166992 -1.42676 -0.25 -2.14062 -0.25
c-1.19531 0 -2.39062 0.231445 -3.51172 0.694336c-1.12109 0.463867 -2.15918 1.13965 -3.04004 2.02051c-0.796875 0.796875 -1.3623 1.75098 -1.81641 2.74316c-0.101562 0.22168 -0.194336 0.425781 -0.277344 0.657227
c-0.361328 0.992188 -0.59375 2.02051 -0.602539 3.07715c0 0.120117 0.0371094 0.231445 0.0371094 0.352539c0.0185547 0.620117 0.0556641 1.25098 0.204102 1.87109l32.7588 137.615c0.0273438 0.0927734 0.0830078 0.18457 0.111328 0.277344
c0.0644531 0.241211 0.18457 0.454102 0.268555 0.695312c0.287109 0.796875 0.666992 1.5293 1.1582 2.21484c0.175781 0.241211 0.342773 0.481445 0.537109 0.704102c0.139648 0.166992 0.232422 0.361328 0.389648 0.519531l334.186 334.185
c32.5264 32.5088 85.4316 32.5088 117.959 0zM474.506 410.515c-23.0566 23.0566 -59.2715 25.0215 -84.6719 6.02441l90.6953 -90.6963c18.9971 25.3916 17.0332 61.6064 -6.02344 84.6719zM428.635 272.9l13.1035 13.1035l-91.7432 91.7432l-13.1035 -13.1035z
M45.9736 -18.0176c3.61426 -3.62305 3.61426 -9.48926 0 -13.1035l-7.01562 -7.01465l99.4258 23.668l4.5498 40.9785l-47.4648 -5.27344c-0.333984 -0.0371094 -0.676758 -0.0556641 -1.01074 -0.0556641h-0.00878906h-0.00976562h-0.00878906h-0.00976562
c-0.342773 0 -0.675781 0.0185547 -1.00977 0.0556641c-0.361328 0.046875 -0.648438 0.241211 -1.00098 0.324219c-0.666992 0.158203 -1.30664 0.325195 -1.91797 0.612305c-0.463867 0.22168 -0.862305 0.491211 -1.2793 0.77832
c-0.52832 0.370117 -1.00977 0.768555 -1.45508 1.24121c-0.351562 0.371094 -0.638672 0.750977 -0.926758 1.17773c-0.351562 0.527344 -0.638672 1.07422 -0.879883 1.67676c-0.194336 0.500977 -0.352539 0.991211 -0.463867 1.5293
c-0.0644531 0.296875 -0.22168 0.546875 -0.258789 0.852539c-0.0371094 0.351562 0.0927734 0.666992 0.0927734 1.01953c0 0.342773 -0.129883 0.666992 -0.0927734 1.01953l5.27246 47.4648l-40.9785 -4.5498l-23.668 -99.416l7.01562 7.01465
c3.62305 3.62402 9.47949 3.62402 13.1035 0zM162.273 32.7568l-3.28027 -29.4971l256.538 256.537l-91.7432 91.7432l-256.538 -256.537l29.4971 3.28027l207.395 207.376c3.62402 3.62402 9.48047 3.62402 13.1035 0c3.62402 -3.62305 3.62402 -9.47949 0 -13.1035
l-207.395 -207.376l-4.91113 -44.2314l44.2305 4.91211l207.377 207.385c3.62305 3.62402 9.47949 3.62402 13.1035 0c3.62305 -3.62305 3.62305 -9.47949 0 -13.1035zM454.842 299.107l13.1123 13.1133l-91.7432 91.7422l-13.1123 -13.1123z" />
    <glyph glyph-name="uniF107" unicode="&#xf107;" 
d="M255.999 448c91.377 0 165.716 -74.3398 165.72 -165.714c0 -136.847 -151.041 -333.915 -157.471 -342.236c-2.05273 -2.65723 -5.13672 -4.0498 -8.25195 -4.0498c-2.22461 0 -4.4668 0.708984 -6.36328 2.17383c-4.55469 3.5166 -5.39355 10.0596 -1.87695 14.6152
c1.53125 1.98047 153.123 199.764 153.123 329.495c0 79.8867 -64.9912 144.878 -144.878 144.878s-144.878 -64.9932 -144.878 -144.878c0 -42.3574 17.5254 -120.665 101.019 -253.183c3.06836 -4.86719 1.6084 -11.3008 -3.25977 -14.3682
c-4.87012 -3.06836 -11.3027 -1.60742 -14.3691 3.26172c-47.5498 75.4639 -104.229 182.573 -104.229 264.289c0 91.376 74.3408 165.716 165.716 165.716zM255.999 335.126c-29.1348 0 -52.8418 -23.7051 -52.8418 -52.8418s23.7051 -52.8418 52.8418 -52.8418
s52.8428 23.7051 52.8428 52.8418c0 11.6377 -3.70801 22.6758 -10.7236 31.915c-3.47949 4.58496 -2.58398 11.1211 1.99902 14.5996c4.58398 3.47754 11.1201 2.58398 14.5986 -1.99902c9.79102 -12.8975 14.9639 -28.29 14.9639 -44.5156
c0 -40.6279 -33.0527 -73.6807 -73.6807 -73.6807s-73.6807 33.0527 -73.6807 73.6807s33.0527 73.6807 73.6807 73.6807c5.75293 0 10.4189 -4.66602 10.4189 -10.4189c0 -5.75391 -4.66602 -10.4199 -10.4189 -10.4199z" />
    <glyph glyph-name="uniF10E" unicode="&#xf10e;" 
d="M256.002 300.279c59.7051 0 108.279 -48.5732 108.279 -108.279c0 -21.6973 -6.39551 -42.6328 -18.4961 -60.5449c-2.31934 -3.43359 -6.9834 -4.33691 -10.416 -2.01855c-3.43457 2.31836 -4.33691 6.98242 -2.01855 10.416
c10.418 15.4229 15.9258 33.4531 15.9258 52.1465c0 51.4307 -41.8428 93.2744 -93.2744 93.2744s-93.2744 -41.8438 -93.2744 -93.2744c0 -51.4316 41.8428 -93.2754 93.2744 -93.2754c21.4795 0 42.4453 7.47949 59.0352 21.0566
c3.20508 2.62402 7.93164 2.15234 10.5566 -1.05469c2.625 -3.20605 2.15332 -7.93262 -1.05371 -10.5566c-19.2627 -15.7656 -43.6035 -24.4492 -68.5381 -24.4492c-59.7051 0 -108.279 48.5742 -108.279 108.28c0 59.7051 48.5732 108.279 108.279 108.279z
M504.498 199.503c4.1416 0 7.50195 -3.3584 7.5 -7.50195c0 -4.14258 -3.3584 -7.50195 -7.50195 -7.50195l-39.7881 -0.000976562c-3.87695 -109.21 -91.9971 -197.329 -201.207 -201.205l-0.000976562 -39.79c0 -4.14355 -3.35938 -7.50195 -7.50195 -7.50195
c-4.14453 0 -7.50195 3.35938 -7.50195 7.50195l0.000976562 39.7764c-39.1641 1.38379 -76.7988 13.5977 -109.274 35.5381c-3.43359 2.31836 -4.33691 6.98242 -2.01758 10.416c2.32031 3.43457 6.98145 4.33594 10.416 2.01758
c29.9863 -20.2568 64.7178 -31.5791 100.876 -32.957l0.000976562 32.1729c-83.2119 3.82031 -150.211 70.8193 -154.031 154.03l-32.1553 0.000976562c2.02148 -51.8096 24.8652 -101.042 63.4082 -136.045c3.06836 -2.78516 3.2959 -7.53027 0.510742 -10.5967
c-2.78418 -3.06934 -7.53125 -3.29688 -10.5977 -0.510742c-41.668 37.8408 -66.3066 91.1211 -68.335 147.152l-39.7949 0.000976562c-4.14355 0 -7.50195 3.35938 -7.50195 7.50195c0 4.14355 3.35938 7.50195 7.50195 7.50195l39.792 -0.000976562
c3.87695 109.208 91.9941 197.326 201.203 201.204l-0.000976562 39.791c0 4.14258 3.3584 7.50195 7.50195 7.50195c4.14258 0 7.50195 -3.3584 7.50195 -7.50195l0.000976562 -39.791c109.211 -3.87598 197.33 -91.9941 201.208 -201.204zM256.001 45.291
c80.8955 0 146.71 65.8145 146.71 146.709s-65.8135 146.709 -146.709 146.709c-33.6406 0 -65.2842 -11.0762 -91.5088 -32.0312c-3.23633 -2.58789 -7.95703 -2.05664 -10.5439 1.17871s-2.05957 7.95703 1.17773 10.5439c26.9531 21.5361 59.0967 33.6035 93.373 35.1396
l-0.000976562 32.1514c-100.934 -3.86328 -182.328 -85.2559 -186.189 -186.19l32.1572 -0.000976562c1.65332 35.5234 15.0029 69.6738 38.0195 96.8818c2.67285 3.16406 7.40625 3.55957 10.5713 0.882812c3.16309 -2.67578 3.55957 -7.40918 0.883789 -10.5723
c-22.3438 -26.4131 -34.6484 -60.041 -34.6484 -94.6924c0 -80.8945 65.8145 -146.709 146.708 -146.709zM263.503 -1.69336c100.936 3.8623 182.329 85.2549 186.191 186.19l-32.1592 -0.000976562c-3.82031 -83.2119 -70.8193 -150.211 -154.031 -154.03zM417.535 199.5
l32.1592 0.000976562c-3.8623 100.935 -85.2559 182.329 -186.191 186.19l0.000976562 -32.1582c83.2129 -3.81934 150.213 -70.8203 154.031 -154.033z" />
    <glyph glyph-name="uniF102" unicode="&#xf102;" 
d="M240 -32c8.83105 0 15.999 -7.16699 15.998 -15.999c0 -8.83105 -7.16699 -16 -16 -16h-223.998c-8.83105 0 -16 7.16797 -16 16v479.998c0 8.83203 7.16895 16 16 16h224c8.83105 0 15.999 -7.16895 15.999 -16s-7.16699 -15.999 -15.999 -15.999h-208v-448h208z
M507.358 203.168c6.22461 -6.20801 6.16016 -16.624 -0.015625 -22.8486l-110.384 -111.983c-6.24023 -6.32031 -16.3682 -6.32031 -22.624 0c-6.25684 6.30371 -6.25684 16.5273 0 22.8477l83.2002 84.4004h-329.487c-8.83105 0 -15.999 7.23145 -15.999 16.1602
c0 8.92773 7.16699 16.1602 15.999 16.1602h329.487l-83.2002 84.4004c-6.25684 6.30371 -6.25684 16.543 0 22.8477c6.24023 6.30371 16.3682 6.31934 22.624 0z" />
    <glyph glyph-name="uniF119" unicode="&#xf119;" 
d="M512 191.999l-146.714 -146.715v130.598h-365.286v32.2354h365.286v130.598z" />
    <glyph glyph-name="uniF115" unicode="&#xf115;" 
d="M510.576 183.464c4.38184 -11.8457 -1.69043 -25.0488 -13.5332 -29.4316h-0.000976562l-284.918 -105.406c-2.59082 -0.958984 -5.2793 -1.43457 -7.96094 -1.43457c-3.25977 0 -6.50879 0.703125 -9.55957 2.10645c-5.55957 2.55762 -9.79004 7.125 -11.9121 12.8643
l-58.4316 157.939c-2.12305 5.73828 -1.88379 11.96 0.671875 17.5195c2.55762 5.55762 7.125 9.78906 12.8643 11.9121l284.917 105.406c5.73926 2.12402 11.96 1.88379 17.5195 -0.672852c5.55957 -2.55566 9.79102 -7.12402 11.9121 -12.8623zM407.052 324.721
l-237.704 -87.9385l149.327 -38.4053zM200.044 81.2686l66.6992 106.809l-117.382 30.1914zM224.863 77.7627l243.54 90.0986l-117.369 36.8174l-18.1328 -25.9434c-2.17676 -3.10449 -5.7041 -4.8916 -9.39258 -4.8916c-0.938477 0 -1.90039 0.125977 -2.85156 0.367188
l-30.6426 7.88184zM364.814 224.362l120.166 -37.6953l-50.7031 137.019zM133.44 59.0244c2.19434 -5.93359 -0.833984 -12.5225 -6.76953 -14.7158l-43.1602 -15.9678c-1.30957 -0.484375 -2.65332 -0.714844 -3.97266 -0.714844
c-4.65723 0 -9.0332 2.85938 -10.7432 7.48242c-2.19434 5.93164 0.834961 12.5195 6.76855 14.7158l43.1611 15.9678c5.92969 2.19336 12.5215 -0.834961 14.7158 -6.76758zM75.0234 165.354c2.19434 -5.93262 -0.834961 -12.5215 -6.76855 -14.7148l-26.6426 -9.85645
c-1.31055 -0.485352 -2.6543 -0.714844 -3.97363 -0.714844c-4.65527 0 -9.03223 2.85938 -10.7422 7.48145c-2.19434 5.93359 0.834961 12.5205 6.76758 14.7158l26.6426 9.85742c5.93164 2.19238 12.5205 -0.834961 14.7168 -6.76855zM41.9951 78.5918
c2.19531 -5.93262 -0.833984 -12.5205 -6.76855 -14.7148l-19.7969 -7.32422c-1.30957 -0.484375 -2.65332 -0.714844 -3.97266 -0.714844c-4.65723 0 -9.0332 2.86035 -10.7432 7.48242c-2.19434 5.93164 0.834961 12.5195 6.76855 14.7158l19.7969 7.32422
c5.93066 2.19336 12.5195 -0.834961 14.7158 -6.76855z" />
    <glyph glyph-name="uniF111" unicode="&#xf111;" 
d="M414.543 92.876c-2.03027 0 -4.06152 0.742188 -5.64648 2.24512l-94.9971 89.1191c-3.31836 3.10449 -3.4834 8.33789 -0.363281 11.6562c3.12109 3.35156 8.32129 3.5 11.6729 0.363281l94.9971 -89.1201c3.31836 -3.10352 3.4834 -8.33691 0.363281 -11.6553
c-1.63477 -1.7334 -3.81445 -2.6084 -6.02637 -2.6084zM97.4404 92.876c-2.19531 0 -4.3916 0.875 -6.02637 2.6084c-3.12012 3.31836 -2.95508 8.55176 0.363281 11.6553l95.0303 89.1201c3.33496 3.10352 8.56836 2.97168 11.6729 -0.363281
c3.12012 -3.31836 2.95508 -8.55176 -0.363281 -11.6562l-95.0303 -89.1191c-1.58496 -1.50293 -3.61621 -2.24512 -5.64648 -2.24512zM470.726 10.0127h-429.451c-22.75 0 -41.2744 18.5078 -41.2744 41.2744v281.442c0 22.7666 18.5244 41.2734 41.2744 41.2734h429.451
c22.75 0 41.2744 -18.5068 41.2744 -41.2734v-281.442c0 -22.7666 -18.5244 -41.2744 -41.2744 -41.2744zM41.2744 357.493c-13.6533 0 -24.7646 -11.1104 -24.7646 -24.7637v-281.442c0 -13.6533 11.1113 -24.7646 24.7646 -24.7646h429.451
c13.6533 0 24.7646 11.1113 24.7646 24.7646v281.442c0 13.6533 -11.1113 24.7637 -24.7646 24.7637h-429.451zM256 150.527c-10.9785 0 -21.958 3.64844 -30.3115 10.9297l-211.985 184.926c-3.43359 2.98828 -3.79688 8.20508 -0.808594 11.6553
c3.02051 3.43457 8.22168 3.74805 11.6553 0.792969l211.985 -184.909c10.5498 -9.19629 28.3799 -9.19629 38.9131 0l211.721 184.612c3.41797 2.98828 8.61816 2.65723 11.6562 -0.792969c2.98828 -3.4502 2.6416 -8.65137 -0.791992 -11.6562l-211.722 -184.611
c-8.37012 -7.29785 -19.333 -10.9463 -30.3115 -10.9463z" />
    <glyph glyph-name="uniF110" unicode="&#xf110;" 
d="M481.438 310.673c6.35059 -6.35059 6.35059 -16.6699 -0.396484 -23.0205l-213.929 -213.929c-3.17578 -3.1748 -7.54102 -4.7627 -11.5098 -4.7627c-4.36621 0 -8.33496 1.58789 -11.5107 4.7627l-213.929 213.929c-6.35059 6.35059 -6.35059 16.6699 0 23.0205
s16.6699 6.35059 23.0205 0l202.815 -202.815l202.419 202.815c6.34961 6.35059 16.6689 6.35059 23.0195 0z" />
    <glyph glyph-name="uniF10C" unicode="&#xf10c;" 
d="M155.784 192.014l231.12 -231.228c5.68652 -5.6875 5.68652 -14.8076 0 -20.4941c-2.79004 -2.89746 -6.54492 -4.29199 -10.1934 -4.29199s-7.40332 1.50195 -10.1934 4.29199l-241.528 241.421c-5.68652 5.68652 -5.68652 14.8066 0 20.4941l241.528 241.528
c5.68652 5.68652 14.8076 5.68652 20.4941 0c5.68652 -5.6875 5.68652 -14.8076 0 -20.4941z" />
    <glyph glyph-name="uniF10A" unicode="&#xf10a;" 
d="M192 128v128h128v-128h-128zM0 320v128h128v-128h-128zM192 -64v128h128v-128h-128zM0 128v128h128v-128h-128zM0 -64v128h128v-128h-128zM384 320v128h128v-128h-128zM192 320v128h128v-128h-128zM384 128v128h128v-128h-128zM384 -64v128h128v-128h-128z" />
    <glyph glyph-name="uniF113" unicode="&#xf113;" 
d="M256.094 448c44.4678 0 85.0488 -18.1543 114.142 -47.4336c29.2803 -29.2803 47.4346 -69.6738 47.4346 -114.329c0 -45.2158 -29.0938 -99.6895 -54.4736 -147.321c-7.78711 -14.4531 -15.2002 -28.3574 -21.1201 -40.7676l-74.3086 -154.735
c-3.15137 -6.49121 -10.9268 -9.26953 -17.418 -6.11719c-2.77832 1.2959 -4.82129 3.52539 -6.11719 6.11719v0l-74.3086 154.735c-5.93066 12.4102 -13.3447 26.3145 -20.9443 40.7676c-25.5674 47.6201 -54.6602 102.105 -54.6602 147.321
c0 44.6553 18.1533 85.0605 47.4336 114.329c29.291 29.2793 69.6855 47.4336 114.341 47.4336v0zM256.094 365.543c21.8662 0 41.6895 -8.89648 55.9561 -23.1631c14.2666 -14.2656 23.1621 -34.1016 23.1621 -56.1426c0 -21.8662 -8.89551 -41.6904 -23.1621 -55.9678
c-14.2666 -14.2666 -34.0898 -23.1631 -55.9561 -23.1631c-21.8672 0 -41.6904 8.89648 -56.1436 23.1631c-14.2666 14.2656 -23.1621 34.1016 -23.1621 55.9678c0 22.0527 8.89551 41.877 23.1621 56.1426c14.4531 14.2666 34.2764 23.1631 56.1436 23.1631v0z
M293.522 323.841c-9.63184 9.63184 -22.7891 15.5625 -37.4287 15.5625c-14.8271 0 -27.9844 -5.93066 -37.6162 -15.5625c-9.63086 -9.63184 -15.5615 -22.7891 -15.5615 -37.6152c0 -14.6396 5.93066 -27.7969 15.5615 -37.4287
c9.63184 -9.63184 22.7891 -15.5625 37.6162 -15.5625c14.6396 0 27.7969 5.93066 37.4287 15.5625c9.63086 9.63184 15.5615 22.7891 15.5615 37.4287c0.0117188 14.8262 -5.91895 27.9834 -15.5615 37.6152v0zM351.895 382.027
c-24.6445 24.6445 -58.3721 39.8447 -95.8008 39.8447s-71.3438 -15.2002 -95.8018 -39.8447c-24.6455 -24.459 -39.8457 -58.373 -39.8457 -95.8018c0 -38.9111 27.4238 -90.0576 51.5088 -135.087c7.78711 -14.6396 15.2002 -28.7188 21.4922 -41.6895l62.6348 -130.265
l62.4473 130.265c6.30371 12.9707 13.7178 27.0498 21.4922 41.6895c24.085 45.0293 51.5088 96.1758 51.5088 135.087c0.0234375 37.4287 -15.1768 71.3428 -39.6357 95.8018v0z" />
    <glyph glyph-name="uniF11E" unicode="&#xf11e;" 
d="M511.153 288.069c0.581055 -3.63281 3.00293 -22.7559 -4.3623 -53.9307c-10.6143 -44.9893 -35.1328 -85.8926 -70.8867 -118.298l-181.436 -161.86l-178.373 161.87c-35.7539 32.3955 -60.2725 73.3086 -70.8867 118.288
c-7.36523 31.1846 -4.94336 50.3076 -4.35254 53.9404c7.46387 82.2598 65.6973 141.94 138.554 141.94c47.7666 0 90.3926 -25.5908 115.177 -68.001c25.0107 41.8682 69.459 67.9912 118.003 67.9912c72.8662 0 131.09 -59.6807 138.563 -141.94zM487.619 238.648
c6.97168 29.5107 4.10645 46.1914 4.08691 46.3486c-6.52832 73.0039 -56.5693 125.319 -119.106 125.319c-47.2441 0 -90.0186 -29.0479 -108.993 -73.9883l-9.06836 -21.4951l-9.06934 21.4951c-19.2793 45.6396 -59.9072 73.998 -106.059 73.998
c-62.5469 0 -112.578 -52.3154 -118.979 -124.384l-0.147461 -0.994141c-0.00976562 -0.108398 -2.875 -16.7793 4.09668 -46.2891c9.69824 -41.0811 32.1494 -78.499 64.9482 -108.216l165.258 -149.976l168.143 150.015c32.7402 29.6582 55.2012 67.0859 64.8896 108.166z
M157.538 370.172c5.43457 0 9.84668 -4.40137 9.84668 -9.84668s-4.40137 -9.84668 -9.84668 -9.84668c-43.4346 0 -78.7744 -35.3408 -78.7744 -78.7744c0 -5.44531 -4.40137 -9.84668 -9.84668 -9.84668s-9.84668 4.40137 -9.84668 9.84668
c0 54.2949 44.1729 98.4678 98.4678 98.4678z" />
    <glyph glyph-name="uniF108" unicode="&#xf108;" 
d="M509.597 -27.4854c3.31445 -3.46191 3.18457 -8.95312 -0.268555 -12.2676c-1.68359 -1.60449 -3.83496 -2.40234 -5.99512 -2.40234c-2.29004 0 -4.57129 0.902344 -6.27148 2.68066l-52.0605 54.4551c-15.7119 -11.9033 -35.2051 -19.0518 -56.3818 -19.0518
c-51.6436 0 -93.6582 42.0146 -93.6582 93.6592s42.0146 93.6504 93.6582 93.6504c51.6445 0 93.6592 -42.0146 93.6592 -93.6592c0 -24.2217 -9.31738 -46.248 -24.4648 -62.8955zM312.312 89.5879c0 -42.0752 34.2324 -76.3086 76.3076 -76.3086
c42.0762 0 76.3086 34.2334 76.3086 76.3086s-34.2324 76.3076 -76.3086 76.3076c-42.0752 0 -76.3076 -34.2324 -76.3076 -76.3076zM90.4922 308.432c0 26.6416 21.6709 48.3125 48.3125 48.3125c26.6426 0 48.3135 -21.6709 48.3135 -48.3125
c0 -26.6338 -21.6709 -48.3047 -48.3135 -48.3047c-26.6416 0 -48.3125 21.6709 -48.3125 48.3047zM169.768 308.432c0 17.0732 -13.8984 30.9619 -30.9629 30.9619c-17.0635 0 -30.9619 -13.8975 -30.9619 -30.9619s13.8984 -30.9541 30.9619 -30.9541
c17.0645 0 30.9629 13.8809 30.9629 30.9541zM267.911 196.528l15.833 -15.8232c3.3916 -3.39258 3.3916 -8.875 0 -12.2676c-3.39258 -3.3916 -8.875 -3.3916 -12.2676 0l-63.4941 63.4863l-141.521 -124.595c-1.64844 -1.44922 -3.69629 -2.16016 -5.73438 -2.16016
c-2.40332 0 -4.79785 0.988281 -6.51562 2.93164c-3.15723 3.60059 -2.81055 9.08301 0.78125 12.25l147.628 129.991c3.44336 3.00977 8.64062 2.8457 11.8672 -0.381836l41.1475 -41.1475l84.9658 93.0605c1.54395 1.7002 3.71289 2.71484 6.02051 2.81934
c2.25586 0.113281 4.55469 -0.710938 6.24609 -2.27246l104.104 -95.4287c3.53906 -3.23633 3.77344 -8.72754 0.538086 -12.2588c-3.23633 -3.53027 -8.71875 -3.77344 -12.2588 -0.537109l-97.7012 89.5547zM260.26 44.4414c4.79688 0 8.6748 -3.87793 8.6748 -8.6748
c0 -4.79785 -3.87793 -8.67578 -8.6748 -8.67578h-251.584c-4.79785 0 -8.67578 3.87793 -8.67578 8.67578v381.714c0 4.79688 3.87793 8.6748 8.67578 8.6748h485.817c4.79785 0 8.67578 -3.87793 8.67578 -8.6748v-251.585c0 -4.79688 -3.87793 -8.6748 -8.67578 -8.6748
s-8.6748 3.87793 -8.6748 8.6748v242.909h-468.468v-364.363h242.909z" />
    <glyph glyph-name="uniF120" unicode="&#xf120;" 
d="M16.9336 196.98c-5.50781 0 -9.96094 4.45312 -9.96094 9.96094c0 71.4014 58.0928 129.494 129.494 129.494h239.066v89.291l136.467 -99.252l-136.467 -99.252v89.291h-239.066c-60.4141 0 -109.572 -49.1582 -109.572 -109.572
c0 -5.50781 -4.45215 -9.96094 -9.96094 -9.96094zM395.455 386.6v-120.25l82.6768 60.125zM495.066 187.02c5.50781 0 9.96094 -4.45312 9.96094 -9.96094c0 -71.4014 -58.0928 -129.494 -129.494 -129.494h-239.066v-89.291l-136.467 99.252l136.467 99.252v-89.291
h239.066c60.4141 0 109.572 49.1582 109.572 109.572c0 5.50781 4.45215 9.96094 9.96094 9.96094zM116.545 -2.59961v120.25l-82.6768 -60.125z" />
    <glyph glyph-name="uniF10D" unicode="&#xf10d;" 
d="M160.348 -33.4385c-3.17578 -3.17578 -7.14453 -4.7627 -11.5107 -4.7627c-4.36523 0 -8.33496 1.58691 -11.5098 4.7627c-6.35059 6.35059 -6.35059 16.6699 0 23.0195l202.419 202.419l-202.419 202.419c-6.35059 6.34961 -6.35059 16.6689 0 23.0195
s16.6699 6.35059 23.0205 0l213.929 -213.929c6.34961 -6.34961 6.34961 -16.6699 0 -23.0195z" />
    <glyph glyph-name="uniF10B" unicode="&#xf10b;" 
d="M509.194 438.938c2.9248 -3.01465 3.63867 -7.5459 1.77441 -11.3037l-237.974 -480.062c-1.68555 -3.4209 -5.16602 -5.5127 -8.88379 -5.5127c-0.555664 0 -1.11133 0.0498047 -1.67578 0.148438c-4.31348 0.733398 -7.63574 4.23438 -8.1709 8.57715l-25.2354 208.604
l-220.75 36.9951c-4.29297 0.713867 -7.61523 4.14453 -8.19043 8.46777s1.73535 8.49805 5.69238 10.3223l492.158 225.876c3.81738 1.75586 8.3291 0.912109 11.2549 -2.11133zM269.961 -13.8867l210.795 425.229l-437.385 -200.73l196.248 -32.8994
c4.33301 -0.723633 7.6748 -4.22461 8.20996 -8.58691z" />
    <glyph glyph-name="uniF11D" unicode="&#xf11d;" 
d="M284.521 133.503c10.542 0 19.1172 -8.5752 19.1162 -19.1172v-26.5645c0 -10.542 -8.57617 -19.1162 -19.1172 -19.1162h-19.5957v-17.9043c0 -4.92773 -3.99414 -8.92383 -8.92383 -8.92383c-4.93066 0 -8.9248 3.99609 -8.9248 8.92383v17.9043h-29.7861
c-4.93066 0 -8.9248 3.99512 -8.9248 8.92383c0 4.92773 3.99414 8.92383 8.9248 8.92383h67.2314c0.698242 0 1.26758 0.568359 1.26758 1.26758v26.5645c0 0.698242 -0.567383 1.26758 -1.26758 1.26758h-57.0391c-10.541 0 -19.1172 8.57617 -19.1172 19.1172v26.5645
c0 10.541 8.57617 19.1162 19.1172 19.1162h19.5947v17.9043c0 4.92773 3.99414 8.92383 8.9248 8.92383c4.92969 0 8.92383 -3.99609 8.92383 -8.92383v-17.9043h29.7891c4.92969 0 8.92383 -3.99609 8.92383 -8.92383s-3.99414 -8.92383 -8.92383 -8.92383h-67.2324
c-0.699219 0 -1.26855 -0.568359 -1.26758 -1.26758v-26.5645c0 -0.698242 0.567383 -1.26758 1.26758 -1.26758h57.0391zM419.299 189.651c4.92871 0 8.9248 -3.99512 8.9248 -8.92383v-235.803c0 -4.92773 -3.99414 -8.92383 -8.9248 -8.92383h-51.0732
c-4.93066 0 -8.92383 3.99609 -8.92383 8.92383s3.99316 8.92383 8.92383 8.92383h42.1494v226.879c0 4.92773 3.99414 8.92383 8.92383 8.92383zM497.041 214.443c1.67285 -1.6748 2.61328 -3.94434 2.61328 -6.31055v-54.2178
c0 -3.60938 -2.17383 -6.86426 -5.50879 -8.24512c-3.33594 -1.38086 -7.17383 -0.617188 -9.72656 1.93457l-224.634 224.634l-158.16 -158.162v-260.229h238.046c4.93066 0 8.9248 -3.99609 8.9248 -8.92383s-3.99414 -8.92383 -8.9248 -8.92383h-246.968
c-4.93066 0 -8.92383 3.99609 -8.92383 8.92383v251.305l-56.1973 -56.1973c-1.70898 -1.70703 -3.99121 -2.61328 -6.31445 -2.61328c-1.14941 0 -2.30859 0.22168 -3.41309 0.678711c-3.33496 1.38184 -5.50879 4.63477 -5.50879 8.24512v54.2178
c0 2.36719 0.94043 4.63672 2.61328 6.30957l70.6465 70.6475c3.4834 3.4834 9.13281 3.48535 12.6211 0c3.48535 -3.48438 3.48535 -9.13574 0 -12.6201l-68.0332 -68.0322v-28.9766l223.281 223.282c1.6748 1.67383 3.94336 2.61426 6.31055 2.61426
c2.36816 0 4.6377 -0.94043 6.31152 -2.61426l215.709 -215.71v28.9766l-222.021 222.021l-138.358 -138.358c-3.48535 -3.48438 -9.13477 -3.48535 -12.6211 0c-3.48535 3.4834 -3.48535 9.13477 0 12.6201l144.67 144.668c3.48535 3.48535 9.13477 3.48535 12.6211 0z" />
  </font>
</defs>
</svg>
